Themabewertung:
  • 0 Bewertung(en) - 0 im Durchschnitt
  • 1
  • 2
  • 3
  • 4
  • 5
Robin Thicke - Paula (2014)
#1
Music 
[Bild: mgl8ivnokpjzn.jpg]

[Bild: 1827638info8vk5q.png]

Artist...............: Robin Thicke
Title Of Album................: Paula
Genre................: R&B, Soul
Year.................: 2014
Size...................: 319 mb
Codec................: Flac, Tracks+.cue
Posted by............: Rapidols 2014

[Bild: 4024755tracklist4lj5u.png]

1. You're My Fantasy
2. Get Her Back
3. Still Madly Crazy
4. Lock The Door
5. Whatever I Want
6. Living In New York City
7. Love Can Grow Back
8. Black Tar Cloud
9. Too Little Too Late
10. Tippy Toes
11. Something Bad
12. The Opposite Of Me
13. Time Of Your Life
14. Forever Love

.Log:
Code:
Exact Audio Copy V1.0 beta 3 from 29. August 2011

EAC extraction logfile from 29. June 2014, 13:11

Robin Thicke / Paula

Used drive : TSSTcorpCDDVDW SH-224DB Adapter: 3 ID: 0

Read mode : Secure
Utilize accurate stream : Yes
Defeat audio cache : No
Make use of C2 pointers : Yes

Read offset correction : 6
Overread into Lead-In and Lead-Out : No
Fill up missing offset samples with silence : Yes
Delete leading and trailing silent blocks : No
Null samples used in CRC calculations : Yes
Used interface : Installed external ASPI interface

Used output format : Internal WAV Routines
Sample format : 44.100 Hz; 16 Bit; Stereo


TOC of the extracted CD

Track | Start | Length | Start sector | End sector
---------------------------------------------------------
1 | 0:00.00 | 5:56.50 | 0 | 26749
2 | 5:56.50 | 3:33.13 | 26750 | 42737
3 | 9:29.63 | 2:55.13 | 42738 | 55875
4 | 12:25.01 | 4:20.46 | 55876 | 75421
5 | 16:45.47 | 3:45.29 | 75422 | 92325
6 | 20:31.01 | 3:25.72 | 92326 | 107772
7 | 23:56.73 | 3:26.64 | 107773 | 123286
8 | 27:23.62 | 3:25.66 | 123287 | 138727
9 | 30:49.53 | 2:54.37 | 138728 | 151814
10 | 33:44.15 | 3:07.24 | 151815 | 165863
11 | 36:51.39 | 3:40.41 | 165864 | 182404
12 | 40:32.05 | 3:00.21 | 182405 | 195925
13 | 43:32.26 | 2:56.45 | 195926 | 209170
14 | 46:28.71 | 5:01.00 | 209171 | 231745


Range status and errors

Selected range

Filename F:\POST 2\Robin Thicke - Paula (EAC)\Robin Thicke - Paula.wav

Peak level 99.9 %
Extraction speed 8.8 X
Range quality 100.0 %
Test CRC 5A4E17E8
Copy CRC 5A4E17E8
Copy OK

No errors occurred


AccurateRip summary

Track 1 not present in database
Track 2 not present in database
Track 3 not present in database
Track 4 not present in database
Track 5 not present in database
Track 6 not present in database
Track 7 not present in database
Track 8 not present in database
Track 9 not present in database
Track 10 not present in database
Track 11 not present in database
Track 12 not present in database
Track 13 not present in database
Track 14 not present in database

None of the tracks are present in the AccurateRip database

End of status report
[/spoiler]

[b][color=deepskyblue].Cue:[/color][/b]
[spoiler]
PERFORMER "Robin Thicke"
TITLE "Paula"
FILE "01 You're My Fantasy.flac" WAVE
TRACK 01 AUDIO
TITLE "You're My Fantasy"
PERFORMER "Robin Thicke"
INDEX 01 00:00:00
FILE "02 Get Her Back.flac" WAVE
TRACK 02 AUDIO
TITLE "Get Her Back"
PERFORMER "Robin Thicke"
INDEX 01 00:00:00
FILE "03 Still Madley Crazy.flac" WAVE
TRACK 03 AUDIO
TITLE "Still Madley Crazy"
PERFORMER "Robin Thicke"
INDEX 01 00:00:00
FILE "04 Lock The Door.flac" WAVE
TRACK 04 AUDIO
TITLE "Lock The Door"
PERFORMER "Robin Thicke"
INDEX 01 00:00:00
FILE "05 Whatever I Want.flac" WAVE
TRACK 05 AUDIO
TITLE "Whatever I Want"
PERFORMER "Robin Thicke"
INDEX 01 00:00:00
FILE "06 Living In New York City.flac" WAVE
TRACK 06 AUDIO
TITLE "Living In New York City"
PERFORMER "Robin Thicke"
INDEX 01 00:00:00
FILE "07 Love Can Grow Back.flac" WAVE
TRACK 07 AUDIO
TITLE "Love Can Grow Back"
PERFORMER "Robin Thicke"
INDEX 01 00:00:00
FILE "08 Black Tar Cloud.flac" WAVE
TRACK 08 AUDIO
TITLE "Black Tar Cloud"
PERFORMER "Robin Thicke"
INDEX 01 00:00:00
TRACK 09 AUDIO
TITLE "Too Little Too Late"
PERFORMER "Robin Thicke"
INDEX 00 03:24:56
FILE "09 Too Little Too Late.flac" WAVE
INDEX 01 00:00:00
FILE "10 Tippy Toes.flac" WAVE
TRACK 10 AUDIO
TITLE "Tippy Toes"
PERFORMER "Robin Thicke"
INDEX 01 00:00:00
FILE "11 Something Bad.flac" WAVE
TRACK 11 AUDIO
TITLE "Something Bad"
PERFORMER "Robin Thicke"
INDEX 01 00:00:00
FILE "12 The Opposite Of Me.flac" WAVE
TRACK 12 AUDIO
TITLE "The Opposite Of Me"
PERFORMER "Robin Thicke"
INDEX 01 00:00:00
FILE "13 Time Of Your Life.flac" WAVE
TRACK 13 AUDIO
TITLE "Time Of Your Life"
PERFORMER "Robin Thicke"
INDEX 01 00:00:00
FILE "14 Forever Love.flac" WAVE
TRACK 14 AUDIO
TITLE "Forever Love"
PERFORMER "Robin Thicke"
INDEX 01 00:00:00

[Bild: 7376110downloadivjlu.png]

[Bild: uploaded.gif] [Bild: ddlstorage.gif] [Bild: easybytez.gif] [Bild: tusfiles.gif]
Code:
https://binbox.io/FFKO4#zibRElpc
Zitieren


Gehe zu:


Benutzer, die gerade dieses Thema anschauen: 1 Gast/Gäste
[-]
Private Messages
Please login or register to use this functionality.

[-]
Search








(Advanced Search)

[-]
Latest Threads
Sam Bracken (2004 - 2013)(Arboris)
Last Post: DonaldDuck007
Heute 17:28
» Replies: 0
» Views: 8
Dienstag heut - Martes hoy!
Last Post: sweety
Heute 17:01
» Replies: 0
» Views: 9
Miguel Bose - Original Album Series - 5CD Set (201...
Last Post: sweety
Heute 16:55
» Replies: 1
» Views: 413
The Warlord (2010 - 2011) (Cross Cult)
Last Post: DonaldDuck007
Heute 15:17
» Replies: 0
» Views: 9
Warum es keine Ritter mehr gibt (2003) (Kult Editi...
Last Post: DonaldDuck007
Heute 14:56
» Replies: 0
» Views: 8
Irokesen (2017) (Splitter Verlag)
Last Post: DonaldDuck007
Heute 14:41
» Replies: 0
» Views: 6
Janet (1986 - 1989) (Avalanche/Feest Verlag)
Last Post: DonaldDuck007
Heute 14:19
» Replies: 0
» Views: 5
Miguel Rios - Bye Bye Ríos Rock Hasta El Final (20...
Last Post: sweety
Heute 13:34
» Replies: 1
» Views: 1339
Cerberus – Fire! (2019)
Last Post: sweety
Heute 12:54
» Replies: 0
» Views: 9
Miguel Rios – Rock & Rios (1982)
Last Post: sweety
Heute 12:48
» Replies: 2
» Views: 791

[-]
Online Staff
There are no staff members currently online.